Xorosho » Хорошая Музыка » Sklerozini Muzzak - Trepetalia Mix (2009) easy listening, trip-hop, electronic, folk
0
0
42
9 717
49
+181

Sklerozini Muzzak - Trepetalia Mix (2009) easy listening, trip-hop, electronic, folk

опубликовал skleroz 18-11-2009, 21:51
Sklerozini Muzzak - Trepetalia Mix (2009) easy listening, trip-hop, electronic, folk


Микс, исполненный сладости печали.

В нем замешана горечь Dead can Dance и размелен корень Texas, разделан Моцарт и приправлен пряным Jamiroquai.
Здесь сочная вырезка из трипового Квартала соседствует с нежнейшей мякотью Igrlova.
Это основное блюдо и десерт осени - дрожащая Трепеталия







1. Praful - Teardrop Butterfly
2. Jamiroquai – Talulah
3. Sophie Hunger – Shape
4. Tranquillo – Elaborated compassion based on Mozart
5. Lisa Gerrard - Space Weave
6. Квартал - Я изнемогаю от любви
7. Hku – Intense
8. Flunk - Morning Star (Parliavox Remix)
9. Troublemakers - Get Misunderstood
10. Irglova and Hansard - If You Want Me
11. Guts - I Want You Tonight
12. Sharleen Spiteri - Melody

Artist: VA
Year: 2009
Genre: easy listening, trip-hop, electronic, folk
Format: mp3
Bitrate: 256 kbps
Size: 93.6 mb
Time: 51.06

Sklerozini Muzzak - Trepetalia by Sklerozini on Mixcloud



EX
Ядиск
easy listening trip-hop electronic folk
Комментарии к новости
олег
olgol18 ноября 2009 22:32
простите у меня 2 вопроса, а что все файлы одним трэком и кто автор картины
18
11
Алёша
skleroz18 ноября 2009 22:37
да - это ведь микс.
Antoine Blanchard
18
11
олег
olgol18 ноября 2009 22:45
спасибо так вкусно написано и картина. сейчас докачется послушаю
18
11
Денис
Кевлар18 ноября 2009 22:49
Talulah... Dynamite... давненько этого товарища в плеере не гонял, надо наверстать) 5 просто так, просто за напоминание о Jamiroquai)
18
11
iNagval18 ноября 2009 22:52
интересное к средине.... там чуть есть.
18
11
олег
olgol18 ноября 2009 23:10
ну вот через Sklerozini Muzzak и с творчеством Antoine Blanchard познакомимся. картины у него весьма красивые. париж как никак
18
11
Алёша
skleroz19 ноября 2009 01:58
да. картины живые
19
11
Максим
odintsoff19 ноября 2009 11:46
жуткая рецензия)))))))а так - молодца)))
19
11
Алёша
skleroz19 ноября 2009 12:15
рецензия написана в приступе голода, поэтому на тот момент прекрасная
а так, конечно, гадость редкая)
19
11
xorosho19 ноября 2009 12:19
хорошая, приятная музыка, как раз для путешествия на машине в дождливый день...
19
11
сд
sashoky19 ноября 2009 20:39
Хорошая музыка. Сегодня прогулялась под эту музыку. Было замечательно.
19
11
Алёша
skleroz19 ноября 2009 21:40
Да - она именно для замечательных прогулок и собрана)
19
11
Катя
ka_mar19 ноября 2009 23:58
очень душевно, спасибо love жаль, что одним треком...
19
11
Алёша
skleroz20 ноября 2009 00:42
душевный донстопмьюзик.
зато есть треклист и Вы можете искать наиболее приятные песни по отдельности
20
11
Катя
ka_mar20 ноября 2009 01:03
)))) прям как конструктор с инструкцией)) для полного комплекта нехватает пазлов из картины wink а вообще да, чем больше вкладываешь своего, тем больше ценишь... 5 уже нашла fellow
а Troublemakers - Get Misunderstood была у меня, гарячо любима... когда-то пришлось усердно мозгами пошевелить, чтобы вспомнить из какого она фильма)))) этакая зарядка для мозгов...
а с Irglova and Hansard - If You Want Me тоже есть история, давно люблю эту песню... так вот недавно зашла в обеденный перерыв в супермаркет "перекус" купить, а там она... я впервые с таким удовольствием между прилавков ходила...ходила и улыбалась
20
11
Алёша
skleroz20 ноября 2009 01:30
я б такую картину вместо окна повесил)
20
11
Макс
bacilla20 ноября 2009 07:11
А cue файл к этому миксу где мона взять?...шоб разрезать smile
20
11
Алёша
skleroz20 ноября 2009 08:16
я если честно - не шарю что такое куефайл) сводил как мог - об cuях
не думал. есть множество сайтов с прямыми ссылками на песни.
аудмеру удобен, например
20
11
maner2220 ноября 2009 12:08
отличный микс с блестящим сведением!!! СПАСИБО, skleroz!!!
сделал CUE файл. Скачать можно тут:
Название: VA-SkleroziniMuzzak-TrepetaliaMix(2009).
rar
Размер: 979 байт
Доступен до: 2009-12-20 13:04:06
http://ifolder.ru/15077581

либо копируем следующее в блокнот, сохраняем с расширением cue в папку с миксом.
Открыть cue файл в плейере AIMP, Foobar2000 или WinAmp:

TITLE "(Title N.N.)"
FILE "Trepetalia.mp3" MP3
TRACK 01 AUDIO
TITLE "Teardrop Butterfly"
PERFORMER "Praful"
INDEX 01 00:00:00
TRACK 02 AUDIO
TITLE "Talulah"
PERFORMER "Jamiroquai"
INDEX 01 04:38:49
TRACK 03 AUDIO
TITLE "Shape"
PERFORMER "Sophie Hunger"
INDEX 01 10:17:00
TRACK 04 AUDIO
TITLE "Elaborated compassion based on Mozart"
PERFORMER "Tranquillo"
INDEX 01 13:18:36
TRACK 05 AUDIO
TITLE "Space Weave"
PERFORMER "Lisa Gerrard"
INDEX 01 17:16:00
TRACK 06 AUDIO
TITLE "Я изнемогаю от любви"
PERFORMER "Квартал"
INDEX 01 23:08:07
TRACK 07 AUDIO
TITLE "Intense"
PERFORMER "Hku"
INDEX 01 27:31:60
TRACK 08 AUDIO
TITLE "Morning Star (Parliavox Remix)"
PERFORMER "Flunk"
INDEX 01 31:46:59
TRACK 09 AUDIO
TITLE "Get Misunderstood"
PERFORMER "Troublemakers"
INDEX 01 35:53:40
TRACK 10 AUDIO
TITLE "If You Want Me"
PERFORMER "Irglova and Hansard"
INDEX 01 39:11:00
TRACK 11 AUDIO
TITLE "I Want You Tonight"
PERFORMER "Guts"
INDEX 01 42:53:10
TRACK 12 AUDIO
TITLE "Melody"
PERFORMER "Sharleen Spiter"
INDEX 01 46:59:40
20
11
dakostyaya20 ноября 2009 14:35
Спасибо skleroz,спасибо maner22!
20
11
ren_ai20 ноября 2009 15:40
да в миксе приятные слуху имена
Jamiroquai
Hku
Flunk
Glen Hansard
последний из которых
очень сильно зацепил когда наткнулся
на его ост к фильму once
фильм как фильм а музыка сказка

зы картина Бланшара словно
теплое мокрое стекло на моих
очках защищают от взглядов прохожих,
и дарят теплый уютный оттенок всему окружающему
спасибо
20
11
Алёша
skleroz20 ноября 2009 15:59
maner22
вот это да! ух ты) вы сделали так, чтобы песни снова были целехонькими?)


ren_ai

кстати, песня If you want me и послужила одним из саундтреков к фильму "однажды"

очень рад, что вам всем приятно эту музыку слышать)
20
11
maner2220 ноября 2009 17:30
skleroz, я просто сделал CUE в котором прописано время начала и конца для каждого трека. Сам файл микса (mp3) не затрагивается. Но при желании с помощью спецпрог типа cuesplitter и файла cue микс можно разрезать потреково, а можно просто записать AudioCD и на нем будет 12 треков а пауз между ними не будет, то есть аромат и прелесть микса будут сохранены
20
11
Алёша
skleroz20 ноября 2009 17:32
maner22
спасибо за труды)
20
11
soigneee20 ноября 2009 18:27
Спасибо Вам огромное!! Подборка волшебна! Очень в настроение попала композиция прекраснейших Marketa Irglova & Glen Hansard - If you want me. Настолько это меня тронуло,что полезла искать на ютьюбе, кто это и откуда. Оказалось , саундтрек к не менее замечательному фильму "Once" (похоже, я одна о нем ничего не слышала - а между, тем, это душевное проникновенное кино собрало с десяток разнообразных наград)
Если остались те, кто кино это не смотрел - бегом смотреть! Очень-очень-очень приятная вещица!!
20
11
Алёша
skleroz21 ноября 2009 02:19
да. фильм хороший)
очень трогает момент, когда она идет ночью по городу под эту песню
21
11
Terry
Terry21 ноября 2009 09:42
Хорошая подборка, но если бы не куе (за что огромное спасибо maner22) я бы закачав сей альбом удалил бы его, ненавижу одним трэком целые альбомы слушать, за исключением только некоторых.
21
11
Алёша
skleroz21 ноября 2009 12:00
так это не альбом
21
11
Макс
bacilla23 ноября 2009 07:09
Ух спасибо!
23
11
Алёша
skleroz23 ноября 2009 09:38
bacilla
вам на радость)
23
11
Информация
Посетители, находящиеся в группе Гости, не могут оставлять комментарии к данной публикации.
Популярные посты
Лента комментариев
25 мая 2022 15:39
...
Хорошо!... но по отдельности лучше!
28 апреля 2022 00:11
...
Хороший грув!
13 апреля 2022 04:53
...
разрыв тупого руцкого шаблона - эт нормально ;)
10 апреля 2022 18:45
...
U2 - Walk on Ukraine
9 апреля 2022 12:02
...
ЖИРИК добрался "туда" и отзвонился путину  
29 марта 2022 14:49
...
нищити касабів до сьомого коліна.. аксіома для українців)